osu file format v14

[General]
AudioFilename: Isshou mono.mp3
AudioLeadIn: 1500
PreviewTime: 25312
Countdown: 0
SampleSet: None
StackLeniency: 0.7
Mode: 3
LetterboxInBreaks: 0
WidescreenStoryboard: 1

[Editor]
DistanceSpacing: 0.8
BeatDivisor: 4
GridSize: 32
TimelineZoom: 1.7

[Metadata]
Title:10K2S Collection EX+
TitleUnicode:10K2S Collection EX+
Artist:BMS by MKTR
ArtistUnicode:BMS by MKTR
Creator:CircusGalop
Version:Katagiri rekka // Isshou mono HD LV.9
Source:BMS
Tags:10K2S EXTEND 10K
BeatmapID:832644
BeatmapSetID:380548

[Difficulty]
HPDrainRate:9
CircleSize:10
OverallDifficulty:5
ApproachRate:5
SliderMultiplier:1.4
SliderTickRate:1

[Events]
//Background and Video events
0,0,"Isshou mono.png",0,0
//Break Periods
//Storyboard Layer 0 (Background)
//Storyboard Layer 1 (Fail)
//Storyboard Layer 2 (Pass)
//Storyboard Layer 3 (Foreground)
//Storyboard Sound Samples

[TimingPoints]
0,468.750000000004,4,2,0,5,1,0

[HitObjects]
25,192,937,5,0,0:0:0:1:
435,192,1406,1,0,0:0:0:1:
384,192,1484,1,0,0:0:0:1:
332,192,1562,1,0,0:0:0:1:
281,192,1640,1,0,0:0:0:1:
179,192,1796,1,0,0:0:0:1:
76,192,1875,1,0,0:0:0:1:
76,192,2109,1,0,0:0:0:1:
332,192,2343,1,0,0:0:0:1:
230,192,2500,1,0,0:0:0:1:
128,192,2578,1,0,0:0:0:1:
128,192,2812,1,0,0:0:0:1:
281,192,2812,1,0,0:0:0:1:
486,192,2812,1,0,0:0:0:1:
384,192,3046,1,0,0:0:0:1:
25,192,3281,1,0,0:0:0:1:
281,192,3281,1,0,0:0:0:1:
281,192,3437,1,0,0:0:0:1:
384,192,3515,1,0,0:0:0:1:
25,192,3750,1,0,0:0:0:1:
281,192,3750,1,0,0:0:0:1:
25,192,3984,1,0,0:0:0:1:
384,192,3984,1,0,0:0:0:1:
25,192,4218,1,0,0:0:0:1:
281,192,4218,1,0,0:0:0:1:
281,192,4375,1,0,0:0:0:1:
384,192,4453,1,0,0:0:0:1:
25,192,4687,1,0,0:0:0:1:
230,192,4687,1,0,0:0:0:1:
384,192,4687,1,0,0:0:0:1:
384,192,4921,1,0,0:0:0:1:
25,192,5156,1,0,0:0:0:1:
281,192,5156,1,0,0:0:0:1:
281,192,5312,1,0,0:0:0:1:
384,192,5390,1,0,0:0:0:1:
25,192,5625,1,0,0:0:0:1:
281,192,5625,1,0,0:0:0:1:
384,192,5859,1,0,0:0:0:1:
25,192,6093,1,0,0:0:0:1:
281,192,6093,1,0,0:0:0:1:
281,192,6250,1,0,0:0:0:1:
384,192,6328,1,0,0:0:0:1:
179,192,6562,1,0,0:0:0:1:
486,192,6562,1,0,0:0:0:1:
76,192,6796,1,0,0:0:0:1:
179,192,7031,1,0,0:0:0:1:
486,192,7031,1,0,0:0:0:1:
179,192,7187,1,0,0:0:0:1:
76,192,7265,1,0,0:0:0:1:
179,192,7500,1,0,0:0:0:1:
486,192,7500,1,0,0:0:0:1:
76,192,7734,1,0,0:0:0:1:
179,192,7968,1,0,0:0:0:1:
486,192,7968,1,0,0:0:0:1:
179,192,8125,1,0,0:0:0:1:
76,192,8203,1,0,0:0:0:1:
128,192,8437,1,0,0:0:0:1:
281,192,8437,1,0,0:0:0:1:
384,192,8437,1,0,0:0:0:1:
486,192,8437,1,0,0:0:0:1:
25,192,8671,1,0,0:0:0:1:
281,192,8671,1,0,0:0:0:1:
384,192,8671,1,0,0:0:0:1:
128,192,8906,1,0,0:0:0:1:
332,192,8906,1,0,0:0:0:1:
486,192,8906,1,0,0:0:0:1:
179,192,9062,1,0,0:0:0:1:
281,192,9062,1,0,0:0:0:1:
435,192,9062,1,0,0:0:0:1:
230,192,9296,1,0,0:0:0:1:
281,192,9296,1,0,0:0:0:1:
435,192,9296,1,0,0:0:0:1:
128,192,9843,1,0,0:0:0:1:
128,192,9960,1,0,0:0:0:1:
128,192,10195,1,0,0:0:0:1:
25,192,10312,1,0,0:0:0:1:
128,192,10312,1,0,0:0:0:1:
230,192,10312,1,0,0:0:0:1:
384,192,10312,1,0,0:0:0:1:
128,192,10546,1,0,0:0:0:1:
332,192,10546,1,0,0:0:0:1:
435,192,10546,1,0,0:0:0:1:
25,192,10781,1,0,0:0:0:1:
76,192,10781,1,0,0:0:0:1:
486,192,10781,1,0,0:0:0:1:
25,192,10937,1,0,0:0:0:1:
486,192,10937,1,0,0:0:0:1:
128,192,11015,1,0,0:0:0:1:
332,192,11015,1,0,0:0:0:1:
435,192,11015,1,0,0:0:0:1:
25,192,11250,1,0,0:0:0:1:
179,192,11250,1,0,0:0:0:1:
486,192,11250,1,0,0:0:0:1:
179,192,11484,1,0,0:0:0:1:
332,192,11484,1,0,0:0:0:1:
435,192,11484,1,0,0:0:0:1:
25,192,11718,1,0,0:0:0:1:
76,192,11718,1,0,0:0:0:1:
486,192,11718,1,0,0:0:0:1:
25,192,11875,1,0,0:0:0:1:
486,192,11875,1,0,0:0:0:1:
179,192,11953,1,0,0:0:0:1:
332,192,11953,1,0,0:0:0:1:
435,192,11953,1,0,0:0:0:1:
25,192,12187,1,0,0:0:0:1:
128,192,12187,1,0,0:0:0:1:
230,192,12187,1,0,0:0:0:1:
384,192,12187,1,0,0:0:0:1:
230,192,12421,1,0,0:0:0:1:
281,192,12421,1,0,0:0:0:1:
384,192,12421,1,0,0:0:0:1:
25,192,12656,1,0,0:0:0:1:
76,192,12656,1,0,0:0:0:1:
486,192,12656,1,0,0:0:0:1:
25,192,12812,1,0,0:0:0:1:
486,192,12812,1,0,0:0:0:1:
230,192,12890,1,0,0:0:0:1:
281,192,12890,1,0,0:0:0:1:
384,192,12890,1,0,0:0:0:1:
25,192,13125,1,0,0:0:0:1:
179,192,13125,1,0,0:0:0:1:
486,192,13125,1,0,0:0:0:1:
128,192,13359,1,0,0:0:0:1:
281,192,13359,1,0,0:0:0:1:
384,192,13359,1,0,0:0:0:1:
25,192,13593,1,0,0:0:0:1:
230,192,13593,1,0,0:0:0:1:
486,192,13593,1,0,0:0:0:1:
25,192,13750,1,0,0:0:0:1:
486,192,13750,1,0,0:0:0:1:
179,192,13828,1,0,0:0:0:1:
281,192,13828,1,0,0:0:0:1:
384,192,13828,1,0,0:0:0:1:
25,192,14062,1,0,0:0:0:1:
128,192,14062,1,0,0:0:0:1:
230,192,14062,1,0,0:0:0:1:
384,192,14062,1,0,0:0:0:1:
128,192,14296,1,0,0:0:0:1:
281,192,14296,1,0,0:0:0:1:
332,192,14296,1,0,0:0:0:1:
25,192,14531,1,0,0:0:0:1:
76,192,14531,1,0,0:0:0:1:
486,192,14531,1,0,0:0:0:1:
25,192,14687,1,0,0:0:0:1:
486,192,14687,1,0,0:0:0:1:
179,192,14765,1,0,0:0:0:1:
281,192,14765,1,0,0:0:0:1:
332,192,14765,1,0,0:0:0:1:
25,192,15000,1,0,0:0:0:1:
230,192,15000,1,0,0:0:0:1:
486,192,15000,1,0,0:0:0:1:
230,192,15234,1,0,0:0:0:1:
281,192,15234,1,0,0:0:0:1:
332,192,15234,1,0,0:0:0:1:
25,192,15468,1,0,0:0:0:1:
128,192,15468,1,0,0:0:0:1:
486,192,15468,1,0,0:0:0:1:
25,192,15625,1,0,0:0:0:1:
486,192,15625,1,0,0:0:0:1:
179,192,15703,1,0,0:0:0:1:
281,192,15703,1,0,0:0:0:1:
332,192,15703,1,0,0:0:0:1:
435,192,15937,1,0,0:0:0:1:
230,192,15937,128,0,16171:0:0:0:0:
25,192,15937,128,0,16171:0:0:0:0:
332,192,16171,1,0,0:0:0:1:
435,192,16171,1,0,0:0:0:1:
384,192,16289,1,0,0:0:0:1:
179,192,16289,128,0,16523:0:0:0:0:
76,192,16289,128,0,16523:0:0:0:0:
281,192,16523,1,0,0:0:0:1:
384,192,16523,1,0,0:0:0:1:
435,192,16640,1,0,0:0:0:1:
25,192,16640,128,0,16875:0:0:0:0:
230,192,16640,128,0,16875:0:0:0:0:
332,192,16875,1,0,0:0:0:1:
435,192,16875,1,0,0:0:0:1:
384,192,16992,1,0,0:0:0:1:
76,192,16992,128,0,17226:0:0:0:0:
179,192,16992,128,0,17226:0:0:0:0:
281,192,17226,1,0,0:0:0:1:
384,192,17226,1,0,0:0:0:1:
25,192,17343,1,0,0:0:0:1:
230,192,17343,1,0,0:0:0:1:
435,192,17343,1,0,0:0:0:1:
76,192,17578,1,0,0:0:0:1:
179,192,17578,1,0,0:0:0:1:
384,192,17578,1,0,0:0:0:1:
128,192,17812,1,0,0:0:0:1:
281,192,17812,1,0,0:0:0:1:
384,192,17812,1,0,0:0:0:1:
486,192,17812,1,0,0:0:0:1:
76,192,18046,1,0,0:0:0:1:
179,192,18046,1,0,0:0:0:1:
384,192,18046,1,0,0:0:0:1:
25,192,18281,1,0,0:0:0:1:
281,192,18281,1,0,0:0:0:1:
486,192,18281,1,0,0:0:0:1:
25,192,18437,1,0,0:0:0:1:
486,192,18437,1,0,0:0:0:1:
76,192,18515,1,0,0:0:0:1:
179,192,18515,1,0,0:0:0:1:
384,192,18515,1,0,0:0:0:1:
25,192,18750,1,0,0:0:0:1:
435,192,18750,1,0,0:0:0:1:
486,192,18750,1,0,0:0:0:1:
76,192,18984,1,0,0:0:0:1:
179,192,18984,1,0,0:0:0:1:
435,192,18984,1,0,0:0:0:1:
25,192,19218,1,0,0:0:0:1:
332,192,19218,1,0,0:0:0:1:
486,192,19218,1,0,0:0:0:1:
25,192,19375,1,0,0:0:0:1:
486,192,19375,1,0,0:0:0:1:
76,192,19453,1,0,0:0:0:1:
179,192,19453,1,0,0:0:0:1:
384,192,19453,1,0,0:0:0:1:
128,192,19687,1,0,0:0:0:1:
281,192,19687,1,0,0:0:0:1:
435,192,19687,1,0,0:0:0:1:
486,192,19687,1,0,0:0:0:1:
128,192,19921,1,0,0:0:0:1:
230,192,19921,1,0,0:0:0:1:
435,192,19921,1,0,0:0:0:1:
25,192,20156,1,0,0:0:0:1:
332,192,20156,1,0,0:0:0:1:
486,192,20156,1,0,0:0:0:1:
25,192,20312,1,0,0:0:0:1:
486,192,20312,1,0,0:0:0:1:
128,192,20390,1,0,0:0:0:1:
230,192,20390,1,0,0:0:0:1:
435,192,20390,1,0,0:0:0:1:
25,192,20625,1,0,0:0:0:1:
281,192,20625,1,0,0:0:0:1:
486,192,20625,1,0,0:0:0:1:
128,192,20859,1,0,0:0:0:1:
230,192,20859,1,0,0:0:0:1:
384,192,20859,1,0,0:0:0:1:
25,192,21093,1,0,0:0:0:1:
281,192,21093,1,0,0:0:0:1:
486,192,21093,1,0,0:0:0:1:
25,192,21250,1,0,0:0:0:1:
486,192,21250,1,0,0:0:0:1:
128,192,21328,1,0,0:0:0:1:
230,192,21328,1,0,0:0:0:1:
435,192,21328,1,0,0:0:0:1:
128,192,21562,1,0,0:0:0:1:
281,192,21562,1,0,0:0:0:1:
332,192,21562,1,0,0:0:0:1:
486,192,21562,1,0,0:0:0:1:
76,192,22031,1,0,0:0:0:1:
281,192,22031,1,0,0:0:0:1:
384,192,22109,1,0,0:0:0:1:
281,192,22187,1,0,0:0:0:1:
384,192,22265,1,0,0:0:0:1:
281,192,22343,1,0,0:0:0:1:
384,192,22421,1,0,0:0:0:1:
76,192,22500,1,0,0:0:0:1:
179,192,22500,1,0,0:0:0:1:
486,192,22500,1,0,0:0:0:1:
179,192,22656,1,0,0:0:0:1:
486,192,22656,1,0,0:0:0:1:
76,192,22968,1,0,0:0:0:1:
179,192,22968,1,0,0:0:0:1:
25,192,23437,1,0,0:0:0:1:
76,192,23437,1,0,0:0:0:1:
128,192,23437,1,0,0:0:0:1:
384,192,23437,1,0,0:0:0:1:
230,192,23671,1,0,0:0:0:1:
332,192,23671,1,0,0:0:0:1:
435,192,23671,1,0,0:0:0:1:
25,192,23906,1,0,0:0:0:1:
179,192,23906,1,0,0:0:0:1:
486,192,23906,1,0,0:0:0:1:
25,192,24062,1,0,0:0:0:1:
486,192,24062,1,0,0:0:0:1:
128,192,24140,1,0,0:0:0:1:
332,192,24140,1,0,0:0:0:1:
435,192,24140,1,0,0:0:0:1:
179,192,24375,1,0,0:0:0:1:
230,192,24375,1,0,0:0:0:1:
486,192,24375,1,0,0:0:0:1:
128,192,24609,1,0,0:0:0:1:
332,192,24609,1,0,0:0:0:1:
435,192,24609,1,0,0:0:0:1:
76,192,24843,1,0,0:0:0:1:
230,192,24843,1,0,0:0:0:1:
486,192,24843,1,0,0:0:0:1:
230,192,25000,1,0,0:0:0:1:
486,192,25000,1,0,0:0:0:1:
25,192,25078,1,0,0:0:0:1:
332,192,25078,1,0,0:0:0:1:
435,192,25078,1,0,0:0:0:1:
76,192,25312,1,0,0:0:0:1:
128,192,25312,1,0,0:0:0:1:
281,192,25312,1,0,0:0:0:1:
281,192,25546,1,0,0:0:0:1:
486,192,25546,1,0,0:0:0:1:
128,192,25664,1,0,0:0:0:1:
179,192,25664,1,0,0:0:0:1:
332,192,25664,1,0,0:0:0:1:
281,192,25898,1,0,0:0:0:1:
486,192,25898,1,0,0:0:0:1:
179,192,26015,1,0,0:0:0:1:
230,192,26015,1,0,0:0:0:1:
384,192,26015,1,0,0:0:0:1:
25,192,26250,1,0,0:0:0:1:
128,192,26250,1,0,0:0:0:1:
179,192,26367,1,0,0:0:0:1:
281,192,26367,1,0,0:0:0:1:
486,192,26367,1,0,0:0:0:1:
25,192,26601,1,0,0:0:0:1:
128,192,26601,1,0,0:0:0:1:
230,192,26718,1,0,0:0:0:1:
332,192,26718,1,0,0:0:0:1:
435,192,26718,1,0,0:0:0:1:
76,192,26953,1,0,0:0:0:1:
281,192,26953,1,0,0:0:0:1:
384,192,26953,1,0,0:0:0:1:
179,192,27187,1,0,0:0:0:1:
230,192,27187,1,0,0:0:0:1:
332,192,27187,1,0,0:0:0:1:
435,192,27187,1,0,0:0:0:1:
25,192,27539,1,0,0:0:0:1:
128,192,27539,1,0,0:0:0:1:
281,192,27539,1,0,0:0:0:1:
384,192,27539,1,0,0:0:0:1:
76,192,27890,1,0,0:0:0:1:
179,192,27890,1,0,0:0:0:1:
332,192,27890,1,0,0:0:0:1:
435,192,27890,1,0,0:0:0:1:
128,192,28125,1,0,0:0:0:1:
230,192,28125,1,0,0:0:0:1:
384,192,28125,1,0,0:0:0:1:
486,192,28125,1,0,0:0:0:1:
128,192,28593,128,0,28945:0:0:0:0:
384,192,28593,128,0,28945:0:0:0:0:
128,192,29062,1,0,0:0:0:1:
281,192,29062,1,0,0:0:0:1:
486,192,29062,1,0,0:0:0:1:
384,192,29062,128,0,29414:0:0:0:0:
435,192,29296,1,0,0:0:0:1:
25,192,29531,1,0,0:0:0:1:
281,192,29531,1,0,0:0:0:1:
128,192,29531,128,0,29882:0:0:0:0:
281,192,29687,1,0,0:0:0:1:
435,192,29765,1,0,0:0:0:1:
25,192,30000,1,0,0:0:0:1:
281,192,30000,1,0,0:0:0:1:
179,192,30000,128,0,30234:0:0:0:0:
25,192,30234,1,0,0:0:0:1:
435,192,30234,1,0,0:0:0:1:
230,192,30351,128,0,30820:0:0:0:0:
25,192,30468,1,0,0:0:0:1:
281,192,30468,1,0,0:0:0:1:
281,192,30625,1,0,0:0:0:1:
435,192,30703,1,0,0:0:0:1:
25,192,30937,1,0,0:0:0:1:
128,192,30937,1,0,0:0:0:1:
179,192,30937,1,0,0:0:0:1:
384,192,30937,1,0,0:0:0:1:
179,192,31171,1,0,0:0:0:1:
435,192,31171,1,0,0:0:0:1:
25,192,31406,1,0,0:0:0:1:
128,192,31406,1,0,0:0:0:1:
281,192,31406,1,0,0:0:0:1:
281,192,31562,1,0,0:0:0:1:
128,192,31640,1,0,0:0:0:1:
435,192,31640,1,0,0:0:0:1:
25,192,31875,1,0,0:0:0:1:
281,192,31875,1,0,0:0:0:1:
179,192,31875,128,0,32109:0:0:0:0:
435,192,32109,1,0,0:0:0:1:
76,192,32226,128,0,32695:0:0:0:0:
25,192,32343,1,0,0:0:0:1:
281,192,32343,1,0,0:0:0:1:
281,192,32500,1,0,0:0:0:1:
435,192,32578,1,0,0:0:0:1:
128,192,32812,1,0,0:0:0:1:
281,192,32812,1,0,0:0:0:1:
486,192,32812,1,0,0:0:0:1:
384,192,32812,128,0,33164:0:0:0:0:
128,192,33046,1,0,0:0:0:1:
230,192,33281,1,0,0:0:0:1:
486,192,33281,1,0,0:0:0:1:
281,192,33281,128,0,33632:0:0:0:0:
230,192,33437,1,0,0:0:0:1:
128,192,33515,1,0,0:0:0:1:
230,192,33750,1,0,0:0:0:1:
486,192,33750,1,0,0:0:0:1:
332,192,33750,128,0,33984:0:0:0:0:
128,192,33984,1,0,0:0:0:1:
486,192,33984,1,0,0:0:0:1:
384,192,34101,128,0,34570:0:0:0:0:
230,192,34218,1,0,0:0:0:1:
486,192,34218,1,0,0:0:0:1:
230,192,34375,1,0,0:0:0:1:
128,192,34453,1,0,0:0:0:1:
128,192,34687,1,0,0:0:0:1:
281,192,34687,1,0,0:0:0:1:
435,192,34687,1,0,0:0:0:1:
486,192,34687,1,0,0:0:0:1:
128,192,34921,1,0,0:0:0:1:
435,192,34921,1,0,0:0:0:1:
486,192,34921,1,0,0:0:0:1:
230,192,35156,1,0,0:0:0:1:
281,192,35156,1,0,0:0:0:1:
486,192,35156,1,0,0:0:0:1:
230,192,35312,1,0,0:0:0:1:
128,192,35390,1,0,0:0:0:1:
281,192,35390,1,0,0:0:0:1:
486,192,35390,1,0,0:0:0:1:
230,192,35625,1,0,0:0:0:1:
486,192,35625,1,0,0:0:0:1:
332,192,35625,128,0,35859:0:0:0:0:
128,192,35859,1,0,0:0:0:1:
384,192,35976,128,0,36445:0:0:0:0:
230,192,36093,1,0,0:0:0:1:
486,192,36093,1,0,0:0:0:1:
230,192,36250,1,0,0:0:0:1:
128,192,36328,1,0,0:0:0:1:
281,192,36328,1,0,0:0:0:1:
281,192,36484,1,0,0:0:0:1:
25,192,36562,1,0,0:0:0:1:
76,192,36562,1,0,0:0:0:1:
230,192,36562,1,0,0:0:0:1:
384,192,36562,1,0,0:0:0:1:
179,192,36796,1,0,0:0:0:1:
435,192,36796,1,0,0:0:0:1:
25,192,37031,1,0,0:0:0:1:
435,192,37031,1,0,0:0:0:1:
179,192,37265,1,0,0:0:0:1:
435,192,37265,1,0,0:0:0:1:
25,192,37500,1,0,0:0:0:1:
435,192,37500,1,0,0:0:0:1:
179,192,37734,1,0,0:0:0:1:
435,192,37734,1,0,0:0:0:1:
25,192,37968,1,0,0:0:0:1:
435,192,37968,1,0,0:0:0:1:
179,192,38203,1,0,0:0:0:1:
435,192,38203,1,0,0:0:0:1:
25,192,38437,1,0,0:0:0:1:
435,192,38437,1,0,0:0:0:1:
179,192,38671,1,0,0:0:0:1:
435,192,38671,1,0,0:0:0:1:
25,192,38906,1,0,0:0:0:1:
435,192,38906,1,0,0:0:0:1:
179,192,39140,1,0,0:0:0:1:
435,192,39140,1,0,0:0:0:1:
25,192,39375,1,0,0:0:0:1:
435,192,39375,1,0,0:0:0:1:
179,192,39609,1,0,0:0:0:1:
435,192,39609,1,0,0:0:0:1:
25,192,39843,1,0,0:0:0:1:
435,192,39843,1,0,0:0:0:1:
230,192,39960,1,0,0:0:0:1:
435,192,40078,1,0,0:0:0:1:
230,192,40195,1,0,0:0:0:1:
128,192,40312,1,0,0:0:0:1:
281,192,40312,1,0,0:0:0:1:
332,192,40312,1,0,0:0:0:1:
384,192,40312,1,0,0:0:0:1:
76,192,40546,1,0,0:0:0:1:
486,192,40546,1,0,0:0:0:1:
76,192,40781,1,0,0:0:0:1:
281,192,40781,1,0,0:0:0:1:
76,192,41015,1,0,0:0:0:1:
486,192,41015,1,0,0:0:0:1:
76,192,41250,1,0,0:0:0:1:
281,192,41250,1,0,0:0:0:1:
76,192,41484,1,0,0:0:0:1:
486,192,41484,1,0,0:0:0:1:
76,192,41718,1,0,0:0:0:1:
281,192,41718,1,0,0:0:0:1:
76,192,41953,1,0,0:0:0:1:
486,192,41953,1,0,0:0:0:1:
76,192,42187,1,0,0:0:0:1:
230,192,42187,1,0,0:0:0:1:
281,192,42187,1,0,0:0:0:1:
76,192,42421,1,0,0:0:0:1:
486,192,42421,1,0,0:0:0:1:
76,192,42656,1,0,0:0:0:1:
128,192,42656,1,0,0:0:0:1:
281,192,42656,1,0,0:0:0:1:
76,192,42890,1,0,0:0:0:1:
486,192,42890,1,0,0:0:0:1:
76,192,43125,1,0,0:0:0:1:
179,192,43125,1,0,0:0:0:1:
281,192,43125,1,0,0:0:0:1:
76,192,43359,1,0,0:0:0:1:
435,192,43359,1,0,0:0:0:1:
230,192,43476,1,0,0:0:0:1:
435,192,43515,1,0,0:0:0:1:
76,192,43593,1,0,0:0:0:1:
281,192,43593,1,0,0:0:0:1:
332,192,43710,1,0,0:0:0:1:
76,192,43828,1,0,0:0:0:1:
332,192,43945,1,0,0:0:0:1:
25,192,44062,1,0,0:0:0:1:
179,192,44062,1,0,0:0:0:1:
230,192,44062,1,0,0:0:0:1:
384,192,44062,1,0,0:0:0:1:
128,192,44296,1,0,0:0:0:1:
486,192,44296,1,0,0:0:0:1:
25,192,44531,1,0,0:0:0:1:
486,192,44531,1,0,0:0:0:1:
128,192,44765,1,0,0:0:0:1:
486,192,44765,1,0,0:0:0:1:
25,192,45000,1,0,0:0:0:1:
486,192,45000,1,0,0:0:0:1:
128,192,45234,1,0,0:0:0:1:
486,192,45234,1,0,0:0:0:1:
25,192,45468,1,0,0:0:0:1:
486,192,45468,1,0,0:0:0:1:
128,192,45703,1,0,0:0:0:1:
486,192,45703,1,0,0:0:0:1:
25,192,45937,1,0,0:0:0:1:
332,192,45937,1,0,0:0:0:1:
486,192,45937,1,0,0:0:0:1:
128,192,46171,1,0,0:0:0:1:
486,192,46171,1,0,0:0:0:1:
25,192,46406,1,0,0:0:0:1:
486,192,46406,1,0,0:0:0:1:
128,192,46640,1,0,0:0:0:1:
486,192,46640,1,0,0:0:0:1:
25,192,46875,1,0,0:0:0:1:
486,192,46875,1,0,0:0:0:1:
128,192,47109,1,0,0:0:0:1:
486,192,47109,1,0,0:0:0:1:
25,192,47343,1,0,0:0:0:1:
486,192,47343,1,0,0:0:0:1:
76,192,47460,1,0,0:0:0:1:
486,192,47578,1,0,0:0:0:1:
76,192,47695,1,0,0:0:0:1:
128,192,47812,1,0,0:0:0:1:
281,192,47812,1,0,0:0:0:1:
332,192,47812,1,0,0:0:0:1:
384,192,47812,1,0,0:0:0:1:
128,192,48046,1,0,0:0:0:1:
435,192,48046,1,0,0:0:0:1:
25,192,48164,1,0,0:0:0:1:
281,192,48164,1,0,0:0:0:1:
384,192,48164,1,0,0:0:0:1:
128,192,48398,1,0,0:0:0:1:
435,192,48398,1,0,0:0:0:1:
25,192,48515,1,0,0:0:0:1:
281,192,48515,1,0,0:0:0:1:
384,192,48515,1,0,0:0:0:1:
128,192,48632,1,0,0:0:0:1:
435,192,48632,1,0,0:0:0:1:
76,192,48750,1,0,0:0:0:1:
179,192,48750,1,0,0:0:0:1:
230,192,48750,1,0,0:0:0:1:
384,192,48750,1,0,0:0:0:1:
332,192,49218,1,0,0:0:0:1:
128,192,49687,1,0,0:0:0:1:
281,192,49687,1,0,0:0:0:1:
332,192,49687,1,0,0:0:0:1:
435,192,49687,1,0,0:0:0:1:
128,192,49921,1,0,0:0:0:1:
486,192,49921,1,0,0:0:0:1:
128,192,50156,1,0,0:0:0:1:
281,192,50156,1,0,0:0:0:1:
128,192,50390,1,0,0:0:0:1:
486,192,50390,1,0,0:0:0:1:
128,192,50625,1,0,0:0:0:1:
384,192,50625,1,0,0:0:0:1:
281,192,50742,1,0,0:0:0:1:
128,192,50859,1,0,0:0:0:1:
281,192,50976,1,0,0:0:0:1:
128,192,51093,1,0,0:0:0:1:
384,192,51093,1,0,0:0:0:1:
281,192,51210,1,0,0:0:0:1:
128,192,51328,1,0,0:0:0:1:
281,192,51445,1,0,0:0:0:1:
25,192,51562,1,0,0:0:0:1:
76,192,51562,1,0,0:0:0:1:
230,192,51562,1,0,0:0:0:1:
384,192,51562,1,0,0:0:0:1:
435,192,51796,1,0,0:0:0:1:
76,192,51953,1,0,0:0:0:1:
179,192,52031,1,0,0:0:0:1:
281,192,52031,1,0,0:0:0:1:
435,192,52265,1,0,0:0:0:1:
76,192,52500,1,0,0:0:0:1:
435,192,52500,1,0,0:0:0:1:
76,192,52734,1,0,0:0:0:1:
435,192,52734,1,0,0:0:0:1:
179,192,52968,1,0,0:0:0:1:
281,192,52968,1,0,0:0:0:1:
76,192,53203,1,0,0:0:0:1:
435,192,53203,1,0,0:0:0:1:
76,192,53437,1,0,0:0:0:1:
332,192,53437,1,0,0:0:0:1:
435,192,53437,1,0,0:0:0:1:
435,192,53671,1,0,0:0:0:1:
76,192,53828,1,0,0:0:0:1:
179,192,53906,1,0,0:0:0:1:
281,192,53906,1,0,0:0:0:1:
435,192,54140,1,0,0:0:0:1:
76,192,54375,1,0,0:0:0:1:
435,192,54375,1,0,0:0:0:1:
179,192,54531,1,0,0:0:0:1:
76,192,54609,1,0,0:0:0:1:
435,192,54609,1,0,0:0:0:1:
179,192,54843,1,0,0:0:0:1:
281,192,54843,1,0,0:0:0:1:
179,192,55078,1,0,0:0:0:1:
435,192,55078,1,0,0:0:0:1:
179,192,55234,1,0,0:0:0:1:
128,192,55312,1,0,0:0:0:1:
281,192,55312,1,0,0:0:0:1:
332,192,55312,1,0,0:0:0:1:
384,192,55312,1,0,0:0:0:1:
25,192,55546,1,0,0:0:0:1:
128,192,55546,1,0,0:0:0:1:
128,192,55664,1,0,0:0:0:1:
332,192,55664,1,0,0:0:0:1:
384,192,55664,1,0,0:0:0:1:
435,192,55664,1,0,0:0:0:1:
25,192,55898,1,0,0:0:0:1:
128,192,55898,1,0,0:0:0:1:
128,192,56015,1,0,0:0:0:1:
384,192,56015,1,0,0:0:0:1:
435,192,56015,1,0,0:0:0:1:
486,192,56015,1,0,0:0:0:1:
281,192,56250,1,0,0:0:0:1:
179,192,56367,1,0,0:0:0:1:
76,192,56484,1,0,0:0:0:1:
281,192,56484,1,0,0:0:0:1:
179,192,56718,1,0,0:0:0:1:
281,192,56718,1,0,0:0:0:1:
230,192,56953,1,0,0:0:0:1:
281,192,56953,1,0,0:0:0:1:
230,192,57109,1,0,0:0:0:1:
25,192,57187,1,0,0:0:0:1:
76,192,57187,1,0,0:0:0:1:
128,192,57187,1,0,0:0:0:1:
179,192,57187,1,0,0:0:0:1:
384,192,57187,1,0,0:0:0:1:
384,192,57421,1,0,0:0:0:1:
486,192,57421,1,0,0:0:0:1:
25,192,57539,1,0,0:0:0:1:
76,192,57539,1,0,0:0:0:1:
179,192,57539,1,0,0:0:0:1:
230,192,57539,1,0,0:0:0:1:
384,192,57539,1,0,0:0:0:1:
384,192,57773,1,0,0:0:0:1:
486,192,57773,1,0,0:0:0:1:
76,192,57890,1,0,0:0:0:1:
128,192,57890,1,0,0:0:0:1:
179,192,57890,1,0,0:0:0:1:
230,192,57890,1,0,0:0:0:1:
384,192,57890,1,0,0:0:0:1:
25,192,58125,1,0,0:0:0:1:
230,192,58242,1,0,0:0:0:1:
25,192,58359,1,0,0:0:0:1:
128,192,58359,1,0,0:0:0:1:
25,192,58593,1,0,0:0:0:1:
486,192,58593,1,0,0:0:0:1:
384,192,58671,1,0,0:0:0:1:
486,192,58750,1,0,0:0:0:1:
25,192,58828,1,0,0:0:0:1:
384,192,58828,1,0,0:0:0:1:
486,192,58906,1,0,0:0:0:1:
384,192,58984,1,0,0:0:0:1:
128,192,59062,1,0,0:0:0:1:
281,192,59062,1,0,0:0:0:1:
332,192,59062,1,0,0:0:0:1:
435,192,59062,1,0,0:0:0:1:
25,192,59296,1,0,0:0:0:1:
332,192,59453,1,0,0:0:0:1:
230,192,59531,1,0,0:0:0:1:
435,192,59531,1,0,0:0:0:1:
25,192,59765,1,0,0:0:0:1:
25,192,60000,1,0,0:0:0:1:
332,192,60000,1,0,0:0:0:1:
25,192,60234,1,0,0:0:0:1:
332,192,60234,1,0,0:0:0:1:
230,192,60468,1,0,0:0:0:1:
435,192,60468,1,0,0:0:0:1:
25,192,60703,1,0,0:0:0:1:
332,192,60703,1,0,0:0:0:1:
25,192,60937,1,0,0:0:0:1:
179,192,60937,1,0,0:0:0:1:
332,192,60937,1,0,0:0:0:1:
25,192,61171,1,0,0:0:0:1:
332,192,61328,1,0,0:0:0:1:
230,192,61406,1,0,0:0:0:1:
435,192,61406,1,0,0:0:0:1:
25,192,61640,1,0,0:0:0:1:
25,192,61875,1,0,0:0:0:1:
332,192,61875,1,0,0:0:0:1:
435,192,62031,1,0,0:0:0:1:
25,192,62109,1,0,0:0:0:1:
332,192,62109,1,0,0:0:0:1:
230,192,62343,1,0,0:0:0:1:
486,192,62343,1,0,0:0:0:1:
384,192,62421,1,0,0:0:0:1:
486,192,62500,1,0,0:0:0:1:
25,192,62578,1,0,0:0:0:1:
384,192,62578,1,0,0:0:0:1:
281,192,62734,1,0,0:0:0:1:
128,192,62812,1,0,0:0:0:1:
435,192,62812,1,0,0:0:0:1:
486,192,62812,1,0,0:0:0:1:
179,192,63046,1,0,0:0:0:1:
332,192,63046,1,0,0:0:0:1:
76,192,63281,1,0,0:0:0:1:
435,192,63281,1,0,0:0:0:1:
76,192,63437,1,0,0:0:0:1:
435,192,63437,1,0,0:0:0:1:
179,192,63515,1,0,0:0:0:1:
332,192,63515,1,0,0:0:0:1:
76,192,63750,1,0,0:0:0:1:
435,192,63750,1,0,0:0:0:1:
179,192,63984,1,0,0:0:0:1:
332,192,63984,1,0,0:0:0:1:
76,192,64218,1,0,0:0:0:1:
435,192,64218,1,0,0:0:0:1:
76,192,64375,1,0,0:0:0:1:
435,192,64375,1,0,0:0:0:1:
179,192,64453,1,0,0:0:0:1:
332,192,64453,1,0,0:0:0:1:
25,192,64687,1,0,0:0:0:1:
230,192,64687,1,0,0:0:0:1:
384,192,64687,1,0,0:0:0:1:
25,192,65156,1,0,0:0:0:1:
486,192,65156,1,0,0:0:0:1:
25,192,65625,1,0,0:0:0:1:
486,192,65625,1,0,0:0:0:1:
25,192,66015,1,0,0:0:0:1:
486,192,66015,1,0,0:0:0:1:
128,192,66562,1,0,0:0:0:1:
332,192,66562,1,0,0:0:0:1:
435,192,66562,1,0,0:0:0:1:
179,192,66796,1,0,0:0:0:1:
435,192,66796,1,0,0:0:0:1:
179,192,67031,1,0,0:0:0:1:
435,192,67031,1,0,0:0:0:1:
179,192,67382,1,0,0:0:0:1:
384,192,67382,1,0,0:0:0:1:
128,192,67617,1,0,0:0:0:1:
435,192,67617,1,0,0:0:0:1:
76,192,67734,1,0,0:0:0:1:
332,192,67734,1,0,0:0:0:1:
25,192,67968,1,0,0:0:0:1:
128,192,67968,1,0,0:0:0:1:
230,192,67968,1,0,0:0:0:1:
384,192,67968,1,0,0:0:0:1:
128,192,68437,1,0,0:0:0:1:
281,192,68437,1,0,0:0:0:1:
332,192,68437,1,0,0:0:0:1:
384,192,68437,1,0,0:0:0:1:
179,192,68671,1,0,0:0:0:1:
384,192,68671,1,0,0:0:0:1:
486,192,68671,1,0,0:0:0:1:
25,192,68906,1,0,0:0:0:1:
230,192,68906,1,0,0:0:0:1:
281,192,68906,1,0,0:0:0:1:
25,192,69062,1,0,0:0:0:1:
230,192,69062,1,0,0:0:0:1:
179,192,69140,1,0,0:0:0:1:
384,192,69140,1,0,0:0:0:1:
486,192,69140,1,0,0:0:0:1:
25,192,69375,1,0,0:0:0:1:
230,192,69375,1,0,0:0:0:1:
435,192,69375,1,0,0:0:0:1:
179,192,69609,1,0,0:0:0:1:
435,192,69609,1,0,0:0:0:1:
486,192,69609,1,0,0:0:0:1:
25,192,69843,1,0,0:0:0:1:
230,192,69843,1,0,0:0:0:1:
332,192,69843,1,0,0:0:0:1:
25,192,70000,1,0,0:0:0:1:
230,192,70000,1,0,0:0:0:1:
179,192,70078,1,0,0:0:0:1:
435,192,70078,1,0,0:0:0:1:
486,192,70078,1,0,0:0:0:1:
25,192,70312,1,0,0:0:0:1:
76,192,70312,1,0,0:0:0:1:
230,192,70312,1,0,0:0:0:1:
384,192,70312,1,0,0:0:0:1:
128,192,70546,1,0,0:0:0:1:
384,192,70546,1,0,0:0:0:1:
486,192,70546,1,0,0:0:0:1:
25,192,70781,1,0,0:0:0:1:
230,192,70781,1,0,0:0:0:1:
281,192,70781,1,0,0:0:0:1:
25,192,70937,1,0,0:0:0:1:
230,192,70937,1,0,0:0:0:1:
128,192,71015,1,0,0:0:0:1:
384,192,71015,1,0,0:0:0:1:
486,192,71015,1,0,0:0:0:1:
25,192,71250,1,0,0:0:0:1:
230,192,71250,1,0,0:0:0:1:
435,192,71250,1,0,0:0:0:1:
128,192,71484,1,0,0:0:0:1:
281,192,71484,1,0,0:0:0:1:
486,192,71484,1,0,0:0:0:1:
25,192,71718,1,0,0:0:0:1:
230,192,71718,1,0,0:0:0:1:
435,192,71718,1,0,0:0:0:1:
25,192,71875,1,0,0:0:0:1:
230,192,71875,1,0,0:0:0:1:
128,192,71953,1,0,0:0:0:1:
384,192,71953,1,0,0:0:0:1:
486,192,71953,1,0,0:0:0:1:
128,192,72187,1,0,0:0:0:1:
281,192,72187,1,0,0:0:0:1:
332,192,72187,1,0,0:0:0:1:
435,192,72187,1,0,0:0:0:1:
179,192,72421,1,0,0:0:0:1:
332,192,72421,1,0,0:0:0:1:
486,192,72421,1,0,0:0:0:1:
76,192,72656,1,0,0:0:0:1:
230,192,72656,1,0,0:0:0:1:
281,192,72656,1,0,0:0:0:1:
76,192,72812,1,0,0:0:0:1:
230,192,72812,1,0,0:0:0:1:
179,192,72890,1,0,0:0:0:1:
332,192,72890,1,0,0:0:0:1:
486,192,72890,1,0,0:0:0:1:
76,192,73125,1,0,0:0:0:1:
230,192,73125,1,0,0:0:0:1:
384,192,73125,1,0,0:0:0:1:
179,192,73359,1,0,0:0:0:1:
384,192,73359,1,0,0:0:0:1:
486,192,73359,1,0,0:0:0:1:
76,192,73593,1,0,0:0:0:1:
230,192,73593,1,0,0:0:0:1:
281,192,73593,1,0,0:0:0:1:
76,192,73750,1,0,0:0:0:1:
230,192,73750,1,0,0:0:0:1:
179,192,73828,1,0,0:0:0:1:
384,192,73828,1,0,0:0:0:1:
486,192,73828,1,0,0:0:0:1:
179,192,73984,1,0,0:0:0:1:
25,192,74062,1,0,0:0:0:1:
76,192,74062,1,0,0:0:0:1:
384,192,74062,1,0,0:0:0:1:
230,192,74062,128,0,74296:0:0:0:0:
128,192,74062,128,0,74296:0:0:0:0:
25,192,74414,1,0,0:0:0:1:
179,192,74414,1,0,0:0:0:1:
76,192,74414,128,0,74648:0:0:0:0:
332,192,74414,128,0,74648:0:0:0:0:
25,192,74765,1,0,0:0:0:1:
281,192,74765,1,0,0:0:0:1:
435,192,74765,128,0,75000:0:0:0:0:
230,192,74765,128,0,75000:0:0:0:0:
25,192,75117,1,0,0:0:0:1:
179,192,75117,1,0,0:0:0:1:
76,192,75117,128,0,75351:0:0:0:0:
332,192,75117,128,0,75351:0:0:0:0:
25,192,75468,1,0,0:0:0:1:
230,192,75468,1,0,0:0:0:1:
281,192,75468,1,0,0:0:0:1:
435,192,75468,1,0,0:0:0:1:
25,192,75703,1,0,0:0:0:1:
76,192,75703,1,0,0:0:0:1:
179,192,75703,1,0,0:0:0:1:
332,192,75703,1,0,0:0:0:1:
128,192,75937,1,0,0:0:0:1:
281,192,75937,1,0,0:0:0:1:
435,192,75937,1,0,0:0:0:1:
486,192,75937,1,0,0:0:0:1:
128,192,76171,1,0,0:0:0:1:
230,192,76171,1,0,0:0:0:1:
384,192,76171,1,0,0:0:0:1:
25,192,76406,1,0,0:0:0:1:
281,192,76406,1,0,0:0:0:1:
486,192,76406,1,0,0:0:0:1:
281,192,76562,1,0,0:0:0:1:
486,192,76562,1,0,0:0:0:1:
128,192,76640,1,0,0:0:0:1:
230,192,76640,1,0,0:0:0:1:
384,192,76640,1,0,0:0:0:1:
179,192,76875,1,0,0:0:0:1:
281,192,76875,1,0,0:0:0:1:
486,192,76875,1,0,0:0:0:1:
179,192,77109,1,0,0:0:0:1:
230,192,77109,1,0,0:0:0:1:
384,192,77109,1,0,0:0:0:1:
76,192,77343,1,0,0:0:0:1:
281,192,77343,1,0,0:0:0:1:
486,192,77343,1,0,0:0:0:1:
281,192,77500,1,0,0:0:0:1:
486,192,77500,1,0,0:0:0:1:
179,192,77578,1,0,0:0:0:1:
230,192,77578,1,0,0:0:0:1:
384,192,77578,1,0,0:0:0:1:
25,192,77812,1,0,0:0:0:1:
76,192,77812,1,0,0:0:0:1:
128,192,77812,1,0,0:0:0:1:
384,192,77812,1,0,0:0:0:1:
128,192,78046,1,0,0:0:0:1:
230,192,78046,1,0,0:0:0:1:
332,192,78046,1,0,0:0:0:1:
25,192,78281,1,0,0:0:0:1:
281,192,78281,1,0,0:0:0:1:
435,192,78281,1,0,0:0:0:1:
281,192,78437,1,0,0:0:0:1:
435,192,78437,1,0,0:0:0:1:
128,192,78515,1,0,0:0:0:1:
230,192,78515,1,0,0:0:0:1:
332,192,78515,1,0,0:0:0:1:
179,192,78750,1,0,0:0:0:1:
281,192,78750,1,0,0:0:0:1:
435,192,78750,1,0,0:0:0:1:
76,192,78984,1,0,0:0:0:1:
230,192,78984,1,0,0:0:0:1:
332,192,78984,1,0,0:0:0:1:
179,192,79218,1,0,0:0:0:1:
281,192,79218,1,0,0:0:0:1:
435,192,79218,1,0,0:0:0:1:
281,192,79375,1,0,0:0:0:1:
435,192,79375,1,0,0:0:0:1:
128,192,79453,1,0,0:0:0:1:
230,192,79453,1,0,0:0:0:1:
332,192,79453,1,0,0:0:0:1:
332,192,79609,1,0,0:0:0:1:
128,192,79687,1,0,0:0:0:1:
281,192,79687,1,0,0:0:0:1:
384,192,79687,1,0,0:0:0:1:
486,192,79687,1,0,0:0:0:1:
76,192,79921,1,0,0:0:0:1:
128,192,80156,1,0,0:0:0:1:
179,192,80234,1,0,0:0:0:1:
128,192,80312,1,0,0:0:0:1:
179,192,80390,1,0,0:0:0:1:
76,192,80546,1,0,0:0:0:1:
25,192,80625,1,0,0:0:0:1:
128,192,80625,1,0,0:0:0:1:
230,192,80625,1,0,0:0:0:1:
384,192,80625,1,0,0:0:0:1:
25,192,80781,1,0,0:0:0:1:
128,192,80781,1,0,0:0:0:1:
25,192,81093,1,0,0:0:0:1:
435,192,81093,1,0,0:0:0:1:
128,192,81562,1,0,0:0:0:1:
332,192,81562,1,0,0:0:0:1:
384,192,81562,1,0,0:0:0:1:
435,192,81562,1,0,0:0:0:1:
179,192,81796,1,0,0:0:0:1:
281,192,81796,1,0,0:0:0:1:
486,192,81796,1,0,0:0:0:1:
25,192,82031,1,0,0:0:0:1:
332,192,82031,1,0,0:0:0:1:
435,192,82031,1,0,0:0:0:1:
332,192,82187,1,0,0:0:0:1:
435,192,82187,1,0,0:0:0:1:
128,192,82265,1,0,0:0:0:1:
281,192,82265,1,0,0:0:0:1:
486,192,82265,1,0,0:0:0:1:
230,192,82500,1,0,0:0:0:1:
332,192,82500,1,0,0:0:0:1:
435,192,82500,1,0,0:0:0:1:
230,192,82734,1,0,0:0:0:1:
281,192,82734,1,0,0:0:0:1:
486,192,82734,1,0,0:0:0:1:
76,192,82968,1,0,0:0:0:1:
332,192,82968,1,0,0:0:0:1:
435,192,82968,1,0,0:0:0:1:
332,192,83125,1,0,0:0:0:1:
435,192,83125,1,0,0:0:0:1:
128,192,83203,1,0,0:0:0:1:
281,192,83203,1,0,0:0:0:1:
486,192,83203,1,0,0:0:0:1:
25,192,83437,1,0,0:0:0:1:
179,192,83437,1,0,0:0:0:1:
230,192,83437,1,0,0:0:0:1:
384,192,83437,1,0,0:0:0:1:
179,192,83671,1,0,0:0:0:1:
281,192,83671,1,0,0:0:0:1:
486,192,83671,1,0,0:0:0:1:
25,192,83906,1,0,0:0:0:1:
332,192,83906,1,0,0:0:0:1:
435,192,83906,1,0,0:0:0:1:
332,192,84062,1,0,0:0:0:1:
435,192,84062,1,0,0:0:0:1:
230,192,84140,1,0,0:0:0:1:
281,192,84140,1,0,0:0:0:1:
486,192,84140,1,0,0:0:0:1:
179,192,84375,1,0,0:0:0:1:
332,192,84375,1,0,0:0:0:1:
435,192,84375,1,0,0:0:0:1:
76,192,84609,1,0,0:0:0:1:
281,192,84609,1,0,0:0:0:1:
486,192,84609,1,0,0:0:0:1:
179,192,84843,1,0,0:0:0:1:
332,192,84843,1,0,0:0:0:1:
435,192,84843,1,0,0:0:0:1:
332,192,85000,1,0,0:0:0:1:
435,192,85000,1,0,0:0:0:1:
128,192,85078,1,0,0:0:0:1:
281,192,85078,1,0,0:0:0:1:
486,192,85078,1,0,0:0:0:1:
128,192,85312,1,0,0:0:0:1:
332,192,85312,1,0,0:0:0:1:
384,192,85312,1,0,0:0:0:1:
435,192,85312,1,0,0:0:0:1:
25,192,85546,1,0,0:0:0:1:
230,192,85546,1,0,0:0:0:1:
384,192,85546,1,0,0:0:0:1:
76,192,85781,1,0,0:0:0:1:
179,192,85781,1,0,0:0:0:1:
332,192,85781,1,0,0:0:0:1:
76,192,85937,1,0,0:0:0:1:
179,192,85937,1,0,0:0:0:1:
25,192,86015,1,0,0:0:0:1:
230,192,86015,1,0,0:0:0:1:
384,192,86015,1,0,0:0:0:1:
76,192,86250,1,0,0:0:0:1:
179,192,86250,1,0,0:0:0:1:
435,192,86250,1,0,0:0:0:1:
25,192,86484,1,0,0:0:0:1:
230,192,86484,1,0,0:0:0:1:
435,192,86484,1,0,0:0:0:1:
76,192,86718,1,0,0:0:0:1:
179,192,86718,1,0,0:0:0:1:
384,192,86718,1,0,0:0:0:1:
76,192,86875,1,0,0:0:0:1:
179,192,86875,1,0,0:0:0:1:
25,192,86953,1,0,0:0:0:1:
230,192,86953,1,0,0:0:0:1:
486,192,86953,1,0,0:0:0:1:
230,192,87109,1,0,0:0:0:1:
25,192,87187,1,0,0:0:0:1:
128,192,87187,1,0,0:0:0:1:
384,192,87187,1,0,0:0:0:1:
179,192,87187,128,0,87421:0:0:0:0:
76,192,87187,128,0,87421:0:0:0:0:
281,192,87539,1,0,0:0:0:1:
384,192,87539,1,0,0:0:0:1:
128,192,87539,128,0,87773:0:0:0:0:
25,192,87539,128,0,87773:0:0:0:0:
230,192,87890,1,0,0:0:0:1:
332,192,87890,1,0,0:0:0:1:
435,192,87890,128,0,88125:0:0:0:0:
486,192,87890,128,0,88125:0:0:0:0:
76,192,88125,1,0,0:0:0:1:
179,192,88242,1,0,0:0:0:1:
332,192,88242,128,0,88476:0:0:0:0:
281,192,88242,128,0,88476:0:0:0:0:
25,192,88593,1,0,0:0:0:1:
128,192,88593,1,0,0:0:0:1:
384,192,88593,1,0,0:0:0:1:
486,192,88593,1,0,0:0:0:1:
76,192,88828,1,0,0:0:0:1:
179,192,88828,1,0,0:0:0:1:
230,192,88828,1,0,0:0:0:1:
332,192,88828,1,0,0:0:0:1:
128,192,89062,1,0,0:0:0:1:
332,192,89062,1,0,0:0:0:1:
384,192,89062,1,0,0:0:0:1:
435,192,89062,1,0,0:0:0:1:
179,192,89296,1,0,0:0:0:1:
281,192,89296,1,0,0:0:0:1:
486,192,89296,1,0,0:0:0:1:
76,192,89531,1,0,0:0:0:1:
332,192,89531,1,0,0:0:0:1:
435,192,89531,1,0,0:0:0:1:
332,192,89687,1,0,0:0:0:1:
435,192,89687,1,0,0:0:0:1:
230,192,89765,1,0,0:0:0:1:
281,192,89765,1,0,0:0:0:1:
486,192,89765,1,0,0:0:0:1:
179,192,90000,1,0,0:0:0:1:
332,192,90000,1,0,0:0:0:1:
435,192,90000,1,0,0:0:0:1:
128,192,90234,1,0,0:0:0:1:
281,192,90234,1,0,0:0:0:1:
486,192,90234,1,0,0:0:0:1:
25,192,90468,1,0,0:0:0:1:
332,192,90468,1,0,0:0:0:1:
435,192,90468,1,0,0:0:0:1:
332,192,90625,1,0,0:0:0:1:
435,192,90625,1,0,0:0:0:1:
230,192,90703,1,0,0:0:0:1:
281,192,90703,1,0,0:0:0:1:
486,192,90703,1,0,0:0:0:1:
76,192,90937,1,0,0:0:0:1:
128,192,90937,1,0,0:0:0:1:
179,192,90937,1,0,0:0:0:1:
384,192,90937,1,0,0:0:0:1:
25,192,91171,1,0,0:0:0:1:
230,192,91171,1,0,0:0:0:1:
486,192,91171,1,0,0:0:0:1:
76,192,91406,1,0,0:0:0:1:
179,192,91406,1,0,0:0:0:1:
281,192,91406,1,0,0:0:0:1:
76,192,91562,1,0,0:0:0:1:
179,192,91562,1,0,0:0:0:1:
25,192,91640,1,0,0:0:0:1:
230,192,91640,1,0,0:0:0:1:
332,192,91640,1,0,0:0:0:1:
76,192,91875,1,0,0:0:0:1:
179,192,91875,1,0,0:0:0:1:
384,192,91875,1,0,0:0:0:1:
25,192,92109,1,0,0:0:0:1:
230,192,92109,1,0,0:0:0:1:
435,192,92109,1,0,0:0:0:1:
76,192,92343,1,0,0:0:0:1:
179,192,92343,1,0,0:0:0:1:
486,192,92343,1,0,0:0:0:1:
76,192,92500,1,0,0:0:0:1:
179,192,92500,1,0,0:0:0:1:
25,192,92578,1,0,0:0:0:1:
230,192,92578,1,0,0:0:0:1:
332,192,92578,1,0,0:0:0:1:
25,192,92734,1,0,0:0:0:1:
128,192,92812,1,0,0:0:0:1:
384,192,92812,1,0,0:0:0:1:
435,192,92812,1,0,0:0:0:1:
486,192,92812,1,0,0:0:0:1:
281,192,93046,1,0,0:0:0:1:
384,192,93281,1,0,0:0:0:1:
486,192,93359,1,0,0:0:0:1:
384,192,93437,1,0,0:0:0:1:
486,192,93515,1,0,0:0:0:1:
281,192,93671,1,0,0:0:0:1:
25,192,93750,1,0,0:0:0:1:
128,192,93750,1,0,0:0:0:1:
230,192,93750,1,0,0:0:0:1:
384,192,93750,1,0,0:0:0:1:
25,192,93906,1,0,0:0:0:1:
128,192,93906,1,0,0:0:0:1:
25,192,94218,1,0,0:0:0:1:
332,192,94218,1,0,0:0:0:1:
128,192,94687,1,0,0:0:0:1:
332,192,94687,1,0,0:0:0:1:
384,192,94687,1,0,0:0:0:1:
486,192,94687,1,0,0:0:0:1:
230,192,94921,1,0,0:0:0:1:
281,192,94921,1,0,0:0:0:1:
435,192,94921,1,0,0:0:0:1:
25,192,95156,1,0,0:0:0:1:
179,192,95156,1,0,0:0:0:1:
384,192,95156,1,0,0:0:0:1:
25,192,95312,1,0,0:0:0:1:
384,192,95312,1,0,0:0:0:1:
128,192,95390,1,0,0:0:0:1:
281,192,95390,1,0,0:0:0:1:
435,192,95390,1,0,0:0:0:1:
179,192,95625,1,0,0:0:0:1:
230,192,95625,1,0,0:0:0:1:
384,192,95625,1,0,0:0:0:1:
128,192,95859,1,0,0:0:0:1:
281,192,95859,1,0,0:0:0:1:
435,192,95859,1,0,0:0:0:1:
76,192,96093,1,0,0:0:0:1:
230,192,96093,1,0,0:0:0:1:
384,192,96093,1,0,0:0:0:1:
230,192,96250,1,0,0:0:0:1:
384,192,96250,1,0,0:0:0:1:
25,192,96328,1,0,0:0:0:1:
281,192,96328,1,0,0:0:0:1:
435,192,96328,1,0,0:0:0:1:
25,192,96562,1,0,0:0:0:1:
76,192,96562,1,0,0:0:0:1:
128,192,96562,1,0,0:0:0:1:
179,192,96562,1,0,0:0:0:1:
384,192,96562,1,0,0:0:0:1:
384,192,96796,1,0,0:0:0:1:
76,192,96914,1,0,0:0:0:1:
128,192,96914,1,0,0:0:0:1:
281,192,97031,1,0,0:0:0:1:
486,192,97031,1,0,0:0:0:1:
281,192,97187,1,0,0:0:0:1:
128,192,97265,1,0,0:0:0:1:
179,192,97265,1,0,0:0:0:1:
384,192,97265,1,0,0:0:0:1:
281,192,97500,1,0,0:0:0:1:
486,192,97500,1,0,0:0:0:1:
179,192,97617,1,0,0:0:0:1:
230,192,97617,1,0,0:0:0:1:
281,192,97656,1,0,0:0:0:1:
384,192,97734,1,0,0:0:0:1:
128,192,97968,1,0,0:0:0:1:
179,192,97968,1,0,0:0:0:1:
281,192,97968,1,0,0:0:0:1:
486,192,97968,1,0,0:0:0:1:
281,192,98125,1,0,0:0:0:1:
76,192,98203,1,0,0:0:0:1:
128,192,98203,1,0,0:0:0:1:
384,192,98203,1,0,0:0:0:1:
128,192,98437,1,0,0:0:0:1:
281,192,98437,1,0,0:0:0:1:
332,192,98437,1,0,0:0:0:1:
384,192,98437,1,0,0:0:0:1:
435,192,98437,1,0,0:0:0:1:
128,192,98671,1,0,0:0:0:1:
332,192,98789,1,0,0:0:0:1:
384,192,98789,1,0,0:0:0:1:
25,192,98906,1,0,0:0:0:1:
230,192,98906,1,0,0:0:0:1:
25,192,99062,1,0,0:0:0:1:
128,192,99140,1,0,0:0:0:1:
384,192,99140,1,0,0:0:0:1:
435,192,99140,1,0,0:0:0:1:
25,192,99375,1,0,0:0:0:1:
230,192,99375,1,0,0:0:0:1:
435,192,99492,1,0,0:0:0:1:
486,192,99492,1,0,0:0:0:1:
25,192,99531,1,0,0:0:0:1:
128,192,99609,1,0,0:0:0:1:
25,192,99843,1,0,0:0:0:1:
76,192,99843,1,0,0:0:0:1:
230,192,99843,1,0,0:0:0:1:
384,192,99843,1,0,0:0:0:1:
435,192,99843,1,0,0:0:0:1:
128,192,99921,1,0,0:0:0:1:
25,192,100000,1,0,0:0:0:1:
179,192,100000,1,0,0:0:0:1:
76,192,100078,1,0,0:0:0:1:
230,192,100078,1,0,0:0:0:1:
332,192,100078,1,0,0:0:0:1:
384,192,100078,1,0,0:0:0:1:
25,192,100234,1,0,0:0:0:1:
76,192,100312,1,0,0:0:0:1:
128,192,100312,1,0,0:0:0:1:
179,192,100312,1,0,0:0:0:1:
230,192,100312,1,0,0:0:0:1:
384,192,100312,1,0,0:0:0:1:
281,192,100546,1,0,0:0:0:1:
384,192,100546,1,0,0:0:0:1:
25,192,100664,1,0,0:0:0:1:
76,192,100664,1,0,0:0:0:1:
179,192,100664,1,0,0:0:0:1:
230,192,100664,1,0,0:0:0:1:
384,192,100664,1,0,0:0:0:1:
281,192,100898,1,0,0:0:0:1:
384,192,100898,1,0,0:0:0:1:
25,192,101015,1,0,0:0:0:1:
76,192,101015,1,0,0:0:0:1:
128,192,101015,1,0,0:0:0:1:
179,192,101015,1,0,0:0:0:1:
384,192,101015,1,0,0:0:0:1:
179,192,101250,1,0,0:0:0:1:
230,192,101250,1,0,0:0:0:1:
128,192,101367,1,0,0:0:0:1:
332,192,101367,1,0,0:0:0:1:
384,192,101367,1,0,0:0:0:1:
435,192,101367,1,0,0:0:0:1:
486,192,101367,1,0,0:0:0:1:
179,192,101601,1,0,0:0:0:1:
230,192,101601,1,0,0:0:0:1:
128,192,101718,1,0,0:0:0:1:
332,192,101718,1,0,0:0:0:1:
384,192,101718,1,0,0:0:0:1:
435,192,101718,1,0,0:0:0:1:
128,192,101953,1,0,0:0:0:1:
281,192,101953,1,0,0:0:0:1:
332,192,101953,1,0,0:0:0:1:
384,192,101953,1,0,0:0:0:1:
25,192,102187,1,0,0:0:0:1:
76,192,102187,1,0,0:0:0:1:
128,192,102187,1,0,0:0:0:1:
230,192,102187,1,0,0:0:0:1:
384,192,102187,1,0,0:0:0:1:
128,192,102539,1,0,0:0:0:1:
281,192,102539,1,0,0:0:0:1:
332,192,102539,1,0,0:0:0:1:
384,192,102539,1,0,0:0:0:1:
486,192,102539,1,0,0:0:0:1:
76,192,102890,1,0,0:0:0:1:
128,192,102890,1,0,0:0:0:1:
179,192,102890,1,0,0:0:0:1:
230,192,102890,1,0,0:0:0:1:
384,192,102890,1,0,0:0:0:1:
128,192,103125,1,0,0:0:0:1:
281,192,103125,1,0,0:0:0:1:
384,192,103125,1,0,0:0:0:1:
435,192,103125,1,0,0:0:0:1:
486,192,103125,1,0,0:0:0:1:
384,192,103515,128,0,104062:0:0:0:0:
230,192,103515,128,0,104062:0:0:0:0:
179,192,103515,128,0,104062:0:0:0:0:
128,192,103515,128,0,104062:0:0:0:0:
76,192,103515,128,0,104062:0:0:0:0:
25,192,103515,128,0,104062:0:0:0:0:
